Torrent Search | Torrent Meta Search | Widgets

Death Race (2050) 2017 DVDRip XviD AC3 EVO

1.4 Gb
found 4 months ago
▲ seeders: 256 ▼ leechers:29
your vote:
real:
fake:
download torrent

Death Race (2050) 2017 DVDRip XviD AC3 EVO torrent

Information about the torrent Death Race (2050) 2017 DVDRip XviD AC3 EVO. Seeders, leechers and torrent status is updated several times per day.

If you want to download the dvdrip torrent Death Race (2050) 2017 DVDRip XviD AC3 EVO you will need a torrent client.

Torrent Metasearch.

tracker
seeders
leechers
↓ torrent client compatible list

↑ hide torrent client compatible list

torrent contents

Death.Race.2050.2017.DVDRip.XviD.AC3-EVO torrent

Death.Race.2050.2017.DVDRip.XviD.AC3-EVO
Death.Race.2050.2017.DVDRip.XviD.AC3-EVO.avi1.39 Gb torrent search
Death.Race.2050.2017.DVDRip.XviD.AC3-EVO.nfo709 bytes torrent search
Torrent Downloaded From ExtraTorrent.cc.txt338 bytes torrent search
sample.avi12 Mb torrent search

Sample info:
Duration: 01:32:42.22, start: 0.000000, bitrate: 2150 kb/s
Stream #0:0: Video: mpeg4 (Simple Profile) (XVID / 0x44495658), yuv420p, 720x400 [SAR 1:1 DAR 9:5], 1692 kb/s, 23.98 fps, 23.98 tbr, 23.98 tbn, 23.98 tbc
Stream #0:1: Audio: ac3 ([0] [0][0] / 0x2000), 48000 Hz, 5.1(side), fltp, 448 kb/s
screenshots
Images are auto generated please report any inapropriate images
 

related search cloud

 death  dvdrip  xvid  race  sample  extratorrent  downloaded  torrent