Torrent Search | Torrent Meta Search | Widgets

This Is Us S01E11 HDTV x264 FLEET eztv mkv

228.87 Mb
found 4 months ago
▲ seeders: 129 ▼ leechers:22
your vote:
real:
fake:
download torrent

This Is Us S01E11 HDTV x264 FLEET eztv mkv torrent

Information about the torrent This Is Us S01E11 HDTV x264 FLEET eztv mkv. Seeders, leechers and torrent status is updated everyday.

If you want to download the tv torrent This Is Us S01E11 HDTV x264 FLEET eztv mkv you will need a torrent client.

Torrent Metasearch.

tracker
seeders
leechers
↓ torrent client compatible list

↑ hide torrent client compatible list

torrent contents

This.Is.Us.S01E11.HDTV.x264-FLEET[eztv].mkv torrent

This.Is.Us.S01E11.HDTV.x264-FLEET[eztv].mkv228.87 Mb torrent search

Sample info:
Duration: 00:41:25.36, start: 0.000000, bitrate: 772 kb/s
Stream #0:0(eng): Video: h264 (High), yuv420p(tv, bt709/unknown/unknown), 720x402 [SAR 1:1 DAR 120:67], 23.98 fps, 23.98 tbr, 1k tbn, 47.95 tbc (default)
Stream #0:1(eng): Audio: aac (LC), 48000 Hz, stereo, fltp (default)
screenshots
Images are auto generated please report any inapropriate images
 

related search cloud

 eztv  fleet  hdtv