Torrent Search | Torrent Meta Search | Widgets

The 74th Annual Golden Globe Awards (2017) 720i HDTV x264 AAC ETRG

1.01 Gb
found 4 months ago
▲ seeders: 61 ▼ leechers:1
your vote:
real:
fake:
download torrent

The 74th Annual Golden Globe Awards (2017) 720i HDTV x264 AAC ETRG torrent

Information about the torrent The 74th Annual Golden Globe Awards (2017) 720i HDTV x264 AAC ETRG. Seeders, leechers and torrent status is updated everyday.

If you want to download the tv torrent The 74th Annual Golden Globe Awards (2017) 720i HDTV x264 AAC ETRG you will need a torrent client.

Torrent Metasearch.

tracker
seeders
leechers
↓ torrent client compatible list

↑ hide torrent client compatible list

torrent contents

The.74th.Annual.Golden.Globe.Awards.2017.720i.HDTV.x264.AAC-ETRG torrent

The.74th.Annual.Golden.Globe.Awards.2017.720i.HDTV.x264.AAC-ETRG
Torrent Downloaded From ExtraTorrent.cc.txt341 bytes torrent search
The.74th.Annual.Golden.Globe.Awards.2017.720i.HDTV.x264.AAC-ETRG.mp41.01 Gb torrent search

Sample info:
Duration: 02:11:28.08, start: 0.000000, bitrate: 1097 kb/s
Stream #0:0	: Video: h264 (High) (avc1 / 0x31637661), yuv420p(tv, bt709/bt709/unknown), 1280x720 [SAR 1:1 DAR 16:9], 1000 kb/s, 25 fps, 25 tbr, 25k tbn, 50 tbc (default)
creation_time	: 2017-01-10 12:25:41
Stream #0:1	: Audio: aac (LC) (mp4a / 0x6134706D), 48000 Hz, stereo, fltp, 93 kb/s (default)
creation_time	: 2017-01-10 12:35:07
screenshots
Images are auto generated please report any inapropriate images
 

related search cloud

 annual  etrg  awards  hdtv  globe  golden  extratorrent  torrent  downloaded